<?xml version="1.0" standalone="no"?>
<!DOCTYPE svg PUBLIC "-//W3C//DTD SVG 1.1//EN" "http://www.w3.org/Graphics/SVG/1.1/DTD/svg11.dtd" >
<svg xmlns="http://www.w3.org/2000/svg">
<metadata></metadata>
<defs>
<font id="sgicons" horiz-adv-x="1024">
<font-face units-per-em="1024" ascent="960" descent="-64" />
<missing-glyph horiz-adv-x="1024" />
<glyph unicode="&#x20;" d="" horiz-adv-x="512" />
<glyph unicode="&#xe600;" d="M79.571-56.5h288.286v1009h-288.286v-1009zM656.143 952.5v-1009h288.285v1009h-288.285z" />
<glyph unicode="&#xe601;" d="M931.154 490.564l-789.664 455.638c-32.43 18.646-72.967-4.87-72.967-42.16v-912.084c0-37.291 40.537-60.806 72.967-42.16l789.665 455.639c32.429 19.468 32.429 66.481-0.001 85.127z" />
<glyph unicode="&#xe602;" d="M761.411 562.247c18.435 12.843 61.614 42.956 61.648 115.976l0.092 150.405 20.565-0.010c9.422-0.006 17.128 7.695 17.136 17.107l0.050 80.693c0.010 9.422-7.688 17.127-17.111 17.131l-663.030 0.373c-9.414 0.006-17.125-7.701-17.136-17.115l-0.044-80.686c-0.003-9.418 7.697-17.121 17.111-17.13l20.571-0.014-0.079-153.139c-0.040-72.294 21.969-89.236 60.867-112.973l169.176-103.22-0.025-43.981c-42.639-25.61-154.017-92.64-168.622-102.815-18.435-12.849-61.622-42.952-61.664-115.97l-0.071-129.501-20.57 0.006c-9.415 0.011-17.133-7.689-17.142-17.104l-0.038-80.688c-0.008-9.42 7.693-17.121 17.113-17.136l663.032-0.377c9.401-0.006 17.115 7.693 17.125 17.115l0.036 80.674c0.018 9.424-7.68 17.131-17.109 17.139l-20.564 0.021 0.055 132.232c0.050 72.285-21.947 89.241-60.851 112.962l-169.171 103.222 0.018 43.979c42.634 25.605 154.018 92.631 168.632 102.824zM545.877 371.844l183.96-112.222c14.113-8.614 21.657-13.372 25.134-18.894 4.184-6.622 6.199-20.184 6.184-41.428l-0.068-132.241-498.608 0.28 0.059 129.49c0.027 40.879 20.402 55.088 35.272 65.46 11.636 8.099 114.046 69.914 180.040 109.495 9.277 5.559 14.96 15.591 14.964 26.412l0.052 78.724c-0.004 10.751-5.592 20.724-14.767 26.325l-183.961 112.24c-14.121 8.609-21.657 13.365-25.137 18.888-4.181 6.628-6.202 20.173-6.187 41.428l0.083 153.139 498.622-0.279-0.092-150.407c-0.014-40.877-20.382-55.080-35.256-65.45-11.625-8.104-114.040-69.923-180.034-109.497-9.276-5.561-14.969-15.589-14.977-26.422l-0.042-78.71c-0.006-10.759 5.592-20.718 14.759-26.331z" />
<glyph unicode="&#xe603;" d="M1020.645 465.34c-1 8.425-7.896 14.915-16.289 15.447l-423.309 27.24 105.375 410.796c2.091 8.176-1.904 16.693-9.581 20.345-7.707 3.557-16.848 1.186-21.779-5.741l-117.2-164.413c-51.346-71.957-83.235-155.956-92.565-243.794l-0.812-8.362-129.901 8.362c-13.761 67.806-71.643 121.007-143.974 125.626-86.871 5.43-161.478-60.971-167.064-146.844-5.491-86.435 60.378-161.447 146.875-167.065 3.371-0.249 6.771-0.375 10.173-0.375 62.532 0 117.169 37.009 142.351 90.803l129.151-27.522-13.884-131.208c-63.624-7.645-117.044-53.67-133.239-117.076-10.453-40.597-4.399-83.002 17.006-119.167 21.406-36.072 55.573-61.847 96.232-72.206 12.854-3.308 26.023-4.993 39.16-4.993 71.799 0 134.378 48.615 152.351 118.263 17.942 70.208-14.604 141.759-74.997 175.861l32.435 126.001 8.239-1.686c86.496-18.41 176.113-14.166 260.487 12.294l192.589 60.536c8.019 2.621 13.198 10.548 12.17 18.878zM246.997 488.337c-2.996-47.367-43.56-84.5-92.082-80.88-47.648 3.059-83.969 44.31-80.943 91.988 3.028 45.496 40.971 81.131 86.528 81.131 1.872 0 3.682-0.063 5.553-0.188 47.744-3.027 84.065-44.34 80.944-92.051zM521.276 90.992c-11.576-45.434-59.349-74.297-105.468-62.377-22.437 5.741-41.281 19.846-53.077 39.816-11.763 19.876-15.134 43.247-9.392 65.652 9.86 38.382 44.371 65.216 83.875 65.216 7.302 0 14.542-0.905 21.625-2.746 46.305-11.95 74.311-59.194 62.437-105.561zM511.573 418.317c-20.813 0-37.694 16.85-37.694 37.85 0 20.813 16.881 37.788 37.694 37.788 20.921 0 37.864-16.912 37.864-37.788 0.001-21-16.943-37.85-37.864-37.85z" />
<glyph unicode="&#xe604;" d="M1020.319 639.86l-508.288 276.25-508.35-276.25 508.35-276.374zM512.031 274.444l-413.847 224.81-94.503-51.316 508.35-276.188 508.288 276.188-94.504 51.316zM512.031 82.521l-413.847 224.935-94.503-51.255 508.35-276.311 508.288 276.311-94.504 51.255z" />
<glyph unicode="&#xe605;" d="M1021.387 353.527l-509.387 395.403-509.387-395.403v161.214l509.387 395.396 509.387-395.4v-161.21zM894.040 367.903v-382.040h-254.693v254.694h-254.694v-254.693h-254.693v382.040l382.040 286.529 382.040-286.53z" />
<glyph unicode="&#xe606;" d="M841.744 833.411h-134.622v87.48c0 17.609-14.202 31.242-31.811 31.242-1.708 0-2.847-0.57-3.404-1.14-0.569 0.569-1.709 1.14-2.278 1.14h-320.942c-17.607 0-31.241-13.633-31.241-31.242v-87.482h-135.19c-38.633 0-68.736-30.102-68.736-68.735v-112.47h59.646v-640.171c0-38.635 29.533-68.166 68.167-68.166h541.337c38.633 0 68.733 29.531 68.733 68.166v640.172h59.076v112.47c0 38.633-30.113 68.736-68.735 68.736zM379.929 889.651h264.143v-56.24h-264.143v56.24z" />
<glyph unicode="&#xe607;" d="M654.205 664.255v287.358h-573.241v-1007.226h862.073v719.868h-288.832zM576.932 144.171l-56.112-56.111-124.225 124.193-124.207-124.193-56.142 56.111 124.209 124.222-124.209 124.211 56.142 56.142 124.208-124.208 124.224 124.208 56.111-56.142-124.193-124.211 124.194-124.222zM896.818 705.204h-192.409v192.409z" />
<glyph unicode="&#xe608;" d="M654.205 664.255v287.358h-573.241v-1007.226h862.073v719.868h-288.832zM896.818 705.204h-192.409v192.409z" />
<glyph unicode="&#xe609;" d="M3.543 770.037v-474.601c0-69.889 65.419-135.554 135.555-135.554h406.79l305.063-169.507v169.508h33.889c70.198 0 135.617 65.665 135.617 135.554v474.6c0 69.889-65.419 135.587-135.617 135.587h-745.742c-70.136 0-135.555-65.698-135.555-135.587zM715.394 532.847c0 37.613 30.353 68.089 67.778 68.089 37.429 0 67.779-30.476 67.779-68.089 0-37.583-30.351-68.057-67.779-68.057-37.426 0-67.778 30.474-67.778 68.057zM444.222 532.847c0 37.613 30.352 68.089 67.777 68.089 37.427 0 67.777-30.476 67.777-68.089 0-37.583-30.351-68.057-67.777-68.057s-67.777 30.474-67.777 68.057zM172.986 532.847c0 37.613 30.413 68.089 67.841 68.089 37.426 0 67.84-30.476 67.84-68.089 0-37.583-30.414-68.057-67.84-68.057-37.428 0-67.841 30.474-67.841 68.057z" />
<glyph unicode="&#xe60a;" d="M1000.179 878.501h-524.541c-8.605 0-20.678 4.764-26.97 10.639l-56.416 52.722c-6.29 5.875-18.362 10.638-26.97 10.638h-341.461c-8.607 0-15.583-6.975-15.583-15.583v-672.532c0-8.604 6.975-15.583 15.583-15.583h976.357c8.607 0 15.583 6.978 15.583 15.583v598.532c0.001 8.608-6.975 15.584-15.582 15.584zM617.27 72.229c0 13.855-8.145 25.009-18.163 25.009h-41.021v106.773c0 13.832-8.11 25.016-18.15 25.016h-56.41c-10.015 0-18.15-11.214-18.15-25.016v-106.773h-47.826c-10.013 0-18.149-11.195-18.149-25.009v-28.715h-281.901v-46.078h281.879v-27.944c0-13.819 8.135-24.99 18.149-24.99h181.572c10.025 0 18.167 11.189 18.167 24.99v27.944h283.233v46.078h-283.233v28.715h0.003z" />
<glyph unicode="&#xe60b;" d="M1000.179 878.501h-524.541c-8.606 0-20.678 4.764-26.97 10.639l-56.416 52.722c-6.29 5.875-18.362 10.638-26.97 10.638h-341.461c-8.607 0-15.583-6.975-15.583-15.583v-672.532c0-8.604 6.975-15.583 15.583-15.583h976.357c8.607 0 15.583 6.977 15.583 15.583v598.532c0.001 8.608-6.975 15.584-15.582 15.584zM699.115 442.482l-75.656-74.982-111.46 110.468-111.456-110.468-75.66 74.982 111.459 110.467-111.451 110.46 75.657 74.984 111.451-110.46 111.46 110.466 75.658-74.984-111.461-110.466 111.459-110.467zM617.27 72.228c0 13.856-8.145 25.009-18.164 25.009h-41.021v106.774c0 13.832-8.11 25.015-18.15 25.015h-56.411c-10.014 0-18.15-11.214-18.15-25.015v-106.774h-47.826c-10.013 0-18.15-11.195-18.15-25.009v-28.714h-281.898v-46.078h281.879v-27.945c0-13.819 8.135-24.99 18.149-24.99h181.572c10.025 0 18.167 11.189 18.167 24.99v27.945h283.233v46.078h-283.233v28.714h0.003z" />
<glyph unicode="&#xe60c;" d="M834.829 954.312h-645.659c-102.114 0-184.858-82.765-184.858-184.858v-642.887c0-102.113 82.744-184.878 184.858-184.878h645.659c102.071 0 184.858 82.786 184.858 184.878v642.887c0.001 102.093-82.764 184.858-184.858 184.858zM840.999 534.333l-349.249-349.228c-14.833-14.854-34.913-23.152-55.873-23.152-20.961 0-41.060 8.341-55.872 23.152l-173.1 173.079c-30.849 30.87-30.849 80.896 0.021 111.788 14.812 14.791 34.89 23.131 55.851 23.131s41.039-8.34 55.851-23.131l103.146-103.188c3.741-3.741 8.835-5.849 14.124-5.849s10.362 2.107 14.103 5.849l279.276 279.296c14.831 14.79 34.91 23.132 55.893 23.132 20.917 0 41.039-8.342 55.829-23.132 30.871-30.872 30.871-80.896 0-111.747z" />
<glyph unicode="&#xe60d;" d="M965.152 951.152h-906.304c-27.614 0-50-22.386-50-50v-906.304c0-27.613 22.386-50 50-50h906.304c27.613 0 50 22.387 50 50v906.304c0 27.614-22.386 50-50 50zM356.059 192.624c-47.102-14.466-102.444-8.501-141.803 8.784-75.499 33.156-116.545 107.414-125.487 207.683-9.78 109.65 20.917 202.954 77.175 254.113 22.65 20.598 47.063 35.085 81.567 43.294 11.48 2.73 25.021 4.994 38.901 5.020 132.548 0.243 189.64-82.735 202.036-204.546-41.62 0-83.24 0-124.86 0-3.664 46.675-26.089 87.036-79.059 81.567-16.156-1.668-30.932-13.169-38.901-23.843-25.836-34.603-30.441-101.229-25.726-158.115 4.753-57.343 25.715-105.981 85.959-99.762 40.313 4.16 53.765 43.904 58.98 84.704 42.038 0 84.077 0 126.116 0-11.641-102.061-51.284-173.218-134.898-198.899zM802.131 192.624c-47.303-14.529-102.175-8.236-141.802 8.784-75.602 32.474-116.367 108.091-125.487 207.683-12.525 136.772 36.54 246.848 127.37 287.368 10.077 4.496 20.244 7.494 31.371 10.039 11.907 2.723 25.084 4.974 38.9 5.020 131.709 0.434 190.631-83.542 202.038-204.546-41.62 0-83.241 0-124.86 0-3.106 41.457-21.030 77.309-60.862 81.567-13.108 1.401-25.999-0.603-35.765-5.647-41.414-21.39-51.308-94.612-48.313-157.486 2.9-60.906 17.737-125.759 87.214-118.586 40.046 4.132 53.515 42.376 58.979 84.704 42.038 0 84.078 0 126.116 0-10.646-99.789-50.791-173.068-134.899-198.9z" />
<glyph unicode="&#xe60e;" d="M470.14 419.703c17.361 41.131 32.048 73.378 44.115 96.741 9.053 17.361 17.564 31.976 25.465 43.877 7.935 11.868 17.529 23.465 28.856 34.79 11.325 11.291 24.345 19.802 39.063 25.465 14.682 5.663 31.093 8.478 49.199 8.478h144.856v-108.642c0-4.883 1.763-9.156 5.358-12.716 3.594-3.595 7.831-5.391 12.715-5.391 5.289 0 9.629 1.695 13.021 5.085l181.036 181.071c3.426 3.391 5.121 7.731 5.121 13.021 0 5.256-1.695 9.595-5.121 13.020l-180.461 180.459c-4.542 3.797-9.087 5.662-13.597 5.662-5.29 0-9.596-1.695-13.021-5.086-3.356-3.39-5.052-7.731-5.052-13.020v-108.609h-144.854c-25.633 0-49.777-3.12-72.427-9.358-22.618-6.206-42.727-14.14-60.255-23.77-17.535-9.596-34.52-22.515-50.926-38.757-16.417-16.208-30.348-31.874-41.852-46.963-11.491-15.055-23.592-33.942-36.215-56.56-12.648-22.616-22.82-42.453-30.547-59.408-7.736-16.987-17.056-37.909-28.012-62.797-17.361-41.13-32.074-73.379-44.148-96.774-9.020-17.328-17.528-31.942-25.424-43.843-7.935-11.868-17.573-23.465-28.865-34.79-11.321-11.334-24.342-19.802-39.062-25.466-14.678-5.662-31.095-8.478-49.193-8.478h-126.753c-5.285 0-9.626-1.695-13.020-5.085-3.396-3.398-5.086-7.74-5.086-13.021v-108.649c0-5.282 1.729-9.622 5.12-13.021 3.386-3.384 7.727-5.087 13.021-5.087h126.72c25.669 0 49.808 3.129 72.42 9.368 22.625 6.196 42.729 14.14 60.264 23.771 17.527 9.587 34.514 22.514 50.926 38.758 16.406 16.207 30.348 31.874 41.877 46.929 11.491 15.089 23.566 33.942 36.181 56.593 12.647 22.617 22.82 42.418 30.555 59.407 7.725 16.987 17.079 37.9 28.002 62.796v0zM23.16 629.054h126.753c16.581 0 31.938-2.747 46.077-8.206 14.174-5.459 26.042-12.071 35.667-19.802 9.601-7.731 19.227-18.379 28.865-31.976 9.593-13.563 17.222-25.567 22.879-35.909 5.667-10.375 12.649-24.075 20.956-41.029 29.030 68.258 54.869 119.764 77.519 154.452-60.357 84.873-137.702 127.292-231.963 127.292h-126.753c-5.285 0-9.626-1.695-13.020-5.086-3.396-3.39-5.086-7.731-5.086-13.021v-108.607c0-5.29 1.69-9.63 5.086-13.020 3.395-3.393 7.736-5.088 13.020-5.088v0zM833.365 387.991c-4.543 3.806-9.054 5.671-13.598 5.671-5.29 0-9.629-1.703-12.987-5.087-3.391-3.391-5.086-7.73-5.086-13.020v-108.643h-144.855c-16.614 0-31.975 2.737-46.113 8.23-14.141 5.468-26.044 12.045-35.64 19.811-9.628 7.732-19.226 18.379-28.855 31.975-9.629 13.563-17.259 25.534-22.923 35.909-5.661 10.377-12.647 24.075-20.92 41.021-29.064-67.877-54.693-119.383-76.934-154.452 10.172-14.707 20.709-27.839 31.666-39.326 10.919-11.494 21.29-21.598 31.128-30.246 9.799-8.68 20.921-16.242 33.365-22.659 12.444-6.4 23.396-11.756 32.823-16.098 9.461-4.341 21.329-7.833 35.639-10.479 14.343-2.646 26.424-4.611 36.215-5.942 9.799-1.313 23.193-2.263 40.181-2.84 16.988-0.543 30.722-0.745 41.301-0.543 10.546 0.17 25.838 0.372 45.844 0.543 19.972 0.204 36.012 0.298 48.082 0.298v-108.634c0-4.926 1.798-9.155 5.358-12.716 3.594-3.594 7.832-5.392 12.75-5.392 5.29 0 9.63 1.695 12.986 5.086l181.072 181.070c3.39 3.392 5.086 7.698 5.086 12.987s-1.696 9.63-5.121 13.022l-180.464 180.454z" />
<glyph unicode="&#xe60f;" d="M512 954.233c-279.665 0-506.233-226.568-506.233-506.233 0-279.667 226.568-506.234 506.234-506.234s506.234 226.567 506.234 506.234c-0.001 279.665-226.568 506.233-506.235 506.233zM750.713 494.942l-118.485-111.726 36.172-129.643c7.268-26.198-5.577-36.176-29.071-22.147l-127.279 76.74-127.445-76.567c-23.326-14.029-37.016-4.055-30.424 22.481l34.987 140.966-114.771 101.248c-20.451 18.086-14.873 32.622 12.339 32.622h139.448l66.257 154.151c10.817 25.016 28.058 25.016 38.536-0.168l64.737-153.983h141.309c27.38-0.169 33.469-15.382 13.69-33.974z" />
<glyph unicode="&#xe610;" d="M796.709 321.464v126.536h-316.344v126.536h316.344v126.538l189.807-189.806-189.807-189.804zM733.439 384.73v-253.072h-316.341v-189.808l-379.613 189.808v822.49h695.957v-316.344h-63.27v253.076h-506.151l253.076-126.538v-569.417h253.076v189.805h63.266z" />
<glyph unicode="&#xe611;" d="M1014.712 707.832c-0.774 9.002-6.706 16.736-15.173 19.819-8.493 3.102-17.997 0.99-24.387-5.388l-130.711-130.701-144.898 45.881-45.879 144.899 130.708 130.71c6.398 6.391 8.485 15.898 5.402 24.375-3.114 8.495-10.828 14.411-19.851 15.19-79.38 6.84-157.158-21.502-213.395-77.746-77.018-77.026-97.415-189.503-61.296-285.378-3.948-3.325-7.843-6.849-11.685-10.649l-436.31-411.707c-0.153-0.15-0.304-0.314-0.471-0.462-51.313-51.314-51.313-134.805 0-186.129 51.319-51.309 134.2-50.683 185.502 0.631 0.221 0.207 0.424 0.412 0.626 0.644l408.113 439.708c3.722 3.736 7.176 7.645 10.432 11.657 95.899-36.181 208.451-15.835 285.538 61.244 56.221 56.244 84.585 134.031 77.735 213.402zM166.52 35.98c-18.908-18.903-49.531-18.89-68.437 0-18.9 18.887-18.9 49.535 0 68.426 18.907 18.892 49.529 18.892 68.437 0 18.9-18.89 18.9-49.539 0-68.426z" />
<glyph unicode="&#xe612;" d="M998.781 896.127h-671.069c-8.009 0-14.526-6.515-14.526-14.526v-169.954c0-8.009 6.517-14.525 14.526-14.525h671.069c8.007 0 14.526 6.517 14.526 14.525v169.954c0.001 8.011-6.519 14.526-14.526 14.526zM998.781 547.503h-671.069c-8.009 0-14.526-6.514-14.526-14.525v-169.954c0-8.010 6.517-14.526 14.526-14.526h671.069c8.007 0 14.526 6.517 14.526 14.526v169.954c0.001 8.011-6.519 14.525-14.526 14.525zM998.781 198.88h-671.069c-8.009 0-14.526-6.515-14.526-14.526v-169.954c0-8.009 6.517-14.526 14.526-14.526h671.069c8.007 0 14.526 6.518 14.526 14.526v169.954c0.001 8.011-6.519 14.526-14.526 14.526zM209.029 896.127h-194.134c-2.317 0-4.203-6.515-4.203-14.526v-169.954c0-8.009 1.885-14.525 4.203-14.525h194.134c2.316 0 4.203 6.517 4.203 14.525v169.954c-0.001 8.011-1.887 14.526-4.203 14.526zM209.029 547.503h-194.134c-2.317 0-4.203-6.514-4.203-14.525v-169.954c0-8.010 1.885-14.526 4.203-14.526h194.134c2.316 0 4.203 6.517 4.203 14.526v169.954c-0.001 8.011-1.887 14.525-4.203 14.525zM209.029 198.88h-194.134c-2.317 0-4.203-6.515-4.203-14.526v-169.954c0-8.009 1.885-14.526 4.203-14.526h194.134c2.316 0 4.203 6.518 4.203 14.526v169.954c-0.001 8.011-1.887 14.526-4.203 14.526z" />
<glyph unicode="&#xe613;" d="M867.308 308.343v-232.27h-710.585v232.27h-136.585v-300.547c0-37.738 30.538-68.278 68.403-68.278h846.92c37.864 0 68.402 30.54 68.402 68.278v300.547h-136.555zM499.539 331.434l-195.553 236.238c0 0-29.733 28.056 2.514 28.056 32.276 0 110.174 0 110.174 0s0 18.932 0 48.043c0 83.113 0 234.316 0 295.951 0 0-4.376 16.759 20.887 16.759 25.417 0 136.896 0 155.021 0 18.25 0 17.876-14.152 17.876-14.152 0-59.712 0-216.128 0-296.511 0-26.070 0-42.953 0-42.953s62.445 0 101.673 0c39.104 0 9.684-29.421 9.684-29.421s-166.35-220.847-189.596-243.997c-16.665-16.76-32.68 1.987-32.68 1.987z" />
<glyph unicode="&#xe614;" d="M137.958 384.785h-131.676v-316.074l93.618 86.057c91.735-128.591 242.117-212.486 412.1-212.486 257.921 0 470.654 193.101 501.768 442.504h-127.727c-30.063-179.396-186.124-316.075-374.041-316.075-133.128 0-250.329 68.647-317.957 172.483l156.185 143.591h-212.27zM512 953.718c-257.921 0-470.685-193.070-501.798-442.503h127.756c30.096 179.397 186.095 316.074 374.042 316.074 137.109 0 257.304-72.752 323.913-181.804l-134.268-134.27h316.075v316.074l-90.502-90.532c-91.366 131.183-243.23 216.961-415.218 216.961z" />
<glyph unicode="&#xe615;" d="M7.43 953.884v-1011.769h1009.14v1011.769h-1009.14zM385.859 303.463v216.807h252.282v-216.806l-252.282-0.001zM638.142 231.193v-216.808h-252.283v216.808h252.283zM638.142 809.345v-216.807h-252.283v216.807h252.283zM322.787 809.345v-216.807h-252.286v216.807h252.286zM70.501 520.27h252.285v-216.806h-252.285v216.806zM701.214 520.27h252.287v-216.806h-252.287v216.806zM701.214 592.538v216.807h252.287v-216.807h-252.287zM70.501 231.193h252.285v-216.808h-252.285v216.808zM701.214 14.386v216.807h252.287v-216.808l-252.287 0.001z" />
<glyph unicode="&#xe616;" d="M765.143 574.573c0 209.706-170.016 379.723-379.712 379.723-209.71 0-379.727-170.017-379.727-379.723 0-209.699 170.017-379.717 379.726-379.717 209.696 0.001 379.713 170.018 379.713 379.717v0zM385.429 289.783c-157.050 0-284.801 127.751-284.801 284.791 0 157.047 127.75 284.798 284.801 284.798 157.038 0 284.788-127.75 284.788-284.798 0-157.041-127.75-284.791-284.788-284.791v0zM990.484 103.754l-232.322 232.324c-34.611-53.837-80.403-99.629-134.24-134.24l232.324-232.322c37.082-37.082 97.215-37.082 134.238 0 37.082 37.023 37.082 97.156 0 134.238v0z" />
<glyph unicode="&#xe617;" d="M511.895 956.466c-280.739 0-508.361-227.622-508.361-508.361 0-280.765 227.623-508.572 508.361-508.572 280.765 0 508.572 227.808 508.572 508.572 0 280.739-227.808 508.361-508.572 508.361v0zM617.813 168.391c-26.27-10.297-47.076-18.072-62.626-23.537-15.552-5.464-33.625-8.196-54.22-8.196-31.759 0-56.506 7.775-74 23.328-17.626 15.342-26.244 35.095-26.244 58.843 0 9.247 0.631 18.703 1.893 28.37 1.287 9.667 3.389 20.385 6.278 32.573l32.811 115.795c2.917 11.14 5.439 21.646 7.33 31.313 1.944 10.087 2.969 19.123 2.969 27.319 0 14.712-3.126 25.009-9.273 30.867-6.068 5.884-17.627 8.616-34.86 8.616-8.379 0-17.206-1.233-26.083-3.755-8.827-2.759-16.366-5.281-22.645-7.593l8.59 35.516c21.435 8.801 42.030 16.182 61.547 22.487 19.597 6.331 38.038 9.457 55.533 9.457 31.497 0 55.664-7.75 72.687-22.906 17.022-15.131 25.638-34.884 25.638-59.236 0-5.045-0.63-13.87-1.682-26.48-1.26-12.82-3.361-24.378-6.514-34.885l-32.574-115.377c-2.731-9.247-5.045-19.964-7.356-31.732-2.101-11.768-3.152-20.805-3.152-26.898 0-15.342 3.572-25.85 10.297-31.313 6.936-5.674 18.704-8.406 35.727-8.406 7.987 0 16.813 1.473 26.899 4.203 9.878 2.732 17.233 5.254 21.856 7.355l-8.826-35.728zM612.138 636.587c-15.341-14.054-33.624-21.199-55.060-21.199-21.228 0-39.72 7.146-55.061 21.199-15.104 14.081-22.907 31.288-22.907 51.461 0 20.017 7.803 37.25 22.907 51.54 15.341 14.053 33.835 21.199 55.061 21.199 21.435 0 39.719-7.146 55.060-21.199 15.132-14.291 22.696-31.523 22.696-51.54 0-20.175-7.564-37.382-22.696-51.461v0z" />
<glyph unicode="&#xe618;" d="M755.931 195.563c-9.354-8.791-19.24-17.353-29.659-25.331-153.712-117.76-373.92-88.65-491.678 65.058-117.801 153.77-88.547 373.906 65.162 491.664 143.258 109.751 344.201 91.945 466.253-35.464l-122.046-93.502 375.131-105.272-3.973 389.62-124.908-95.692c-174.839 195.54-473.589 226.221-685.264 64.057-222.122-170.17-264.178-488.105-94.047-710.172 170.127-222.066 488.049-264.221 710.173-94.047 10.362 7.941 20.379 16.335 30.006 24.877l-95.15 124.204z" />
<glyph unicode="&#xe619;" d="M512.007 408.956c21.146 0 39.455 7.721 54.896 23.178 15.457 15.445 23.192 33.754 23.192 54.896v390.407c0 21.152-7.735 39.451-23.192 54.896-15.44 15.46-33.743 23.188-54.896 23.188s-39.452-7.736-54.903-23.188c-15.457-15.446-23.186-33.751-23.186-54.896v-390.407c0-21.142 7.729-39.451 23.186-54.895 15.451-15.458 33.758-23.179 54.903-23.179zM931.388 618.189c-32.741 65.468-78.783 120.371-138.16 164.694-17.080 13.011-36.391 18.095-57.953 15.252-21.554-2.848-38.628-13.016-51.239-30.497-13.016-17.077-17.987-36.288-14.945-57.642 3.042-21.36 13.117-38.536 30.197-51.551 39.839-30.091 70.667-66.897 92.404-110.412 21.758-43.509 32.629-89.875 32.629-139.071 0-42.305-8.237-82.658-24.697-121.088-16.474-38.43-38.737-71.675-66.8-99.737-28.063-28.055-61.293-50.327-99.73-66.792-38.431-16.475-78.798-24.713-121.089-24.713s-82.649 8.238-121.079 24.713c-38.438 16.465-71.676 38.735-99.739 66.792-28.056 28.062-50.318 61.308-66.792 99.737-16.473 38.431-24.705 78.784-24.705 121.088 0 49.196 10.879 95.557 32.632 139.071 21.758 43.507 52.563 80.314 92.412 110.412 17.080 13.021 27.14 30.197 30.196 51.551 3.048 21.342-1.93 40.565-14.945 57.642-12.604 17.481-29.575 27.648-50.933 30.497-21.35 2.843-40.777-2.242-58.258-15.252-59.377-44.323-105.426-99.226-138.168-164.694-32.736-65.475-49.106-135.217-49.106-209.226 0-63.442 12.408-124.026 37.208-181.781 24.816-57.746 58.157-107.563 100.045-149.449 41.881-41.882 91.701-75.237 149.449-100.030 57.748-24.808 118.339-37.224 181.781-37.224 63.437 0 124.036 12.416 181.782 37.224 57.747 24.801 107.568 58.149 149.449 100.030 41.882 41.887 75.223 91.703 100.037 149.449 24.802 57.755 37.204 118.339 37.204 181.781 0.004 74.009-16.346 143.751-49.087 209.226z" />
<glyph unicode="&#xe61a;" d="M886.804 444.014c-46.095 0-83.482 37.389-83.482 83.483 0 46.072 37.388 83.381 83.482 83.381s83.392-37.309 83.392-83.381c0.001-46.095-37.298-83.483-83.392-83.483v0zM886.804 235.443c-46.095 0-83.482 37.297-83.482 83.482 0 46.096 37.388 83.392 83.482 83.392s83.392-37.296 83.392-83.392c0.001-46.093-37.298-83.482-83.392-83.482v0zM764.924 110.264c0-46.095-40.596-89.989-86.781-89.989h-500.718c-46.002 0-79.268 43.895-79.268 89.989v417.233c0 46.072 33.265 90.528 79.268 90.528h500.716c46.094 0 86.782-44.456 86.782-90.528l0.001-417.233zM928.5 687.029h-309.282c-25.385 0-32.807 19.508-16.495 39.027l81.284 99.359c16.312 19.519 30.882 35.911 32.623 35.465 1.008-0.275 2.107 0 3.3 0 23.001 0 41.695 18.866 41.695 41.97 0 22.989-18.694 41.786-41.695 41.786-23.093 0-41.787-18.706-41.787-41.627 0-2.555 0.274-4.925 0.824-7.217 0.825-3.94-11.089-22.738-27.309-42.257l-103.277-123.792c-16.221-19.519-32.898-35.281-37.113-35.281-4.204 0-20.791 15.762-37.022 35.281l-103.175 123.793c-16.333 19.519-28.316 38.409-27.502 42.349 0.447 2.279 0.733 4.662 0.733 7.125 0 23.013-18.602 41.718-41.685 41.718-23.023 0-41.718-18.706-41.718-41.718 0-23.081 18.694-41.776 41.718-41.776 1.191 0 2.27 0.286 3.276 0.561 1.833 0.355 16.426-15.041 32.727-34.559l81.192-101.25c16.312-19.52 8.9-39.038-16.483-39.038h-309.296c-46.106 0.081-87.881-29.886-87.881-75.98v-584.186c0-46.095 41.775-75.513 87.881-75.513h834.466c46.094 0 89.349 29.418 89.349 75.513v584.187c0 46.095-43.252 76.060-89.348 76.060z" />
<glyph unicode="&#xe61b;" d="M978.173 521.246l-99.648 16.622c-7.242 29.613-17.806 57.915-31.56 84.316l63.793 79.093c13.566 16.719 12.953 40.77-1.35 56.901l-39.634 44.606c-14.368 16.119-38.187 19.521-56.359 8.042l-85.221-53.568c-37.479 26.187-79.942 45.525-125.743 56.747l-16.67 100.182c-3.498 21.215-21.857 36.778-43.405 36.778h-59.726c-21.506 0-39.924-15.563-43.345-36.778l-16.757-100.214c-37.87-9.271-73.375-24.236-105.773-43.948l-81.044 57.838c-17.47 12.478-41.459 10.525-56.704-4.682l-42.195-42.227c-15.208-15.239-17.157-39.233-4.648-56.698l57.976-81.196c-19.527-32.157-34.339-67.46-43.608-104.989l-100.754-16.824c-21.183-3.498-36.778-21.855-36.778-43.406v-59.68c0-21.549 15.595-39.907 36.778-43.405l100.752-16.824c7.614-30.879 18.666-60.382 33.352-87.732l-63.497-78.647c-13.524-16.704-12.954-40.768 1.348-56.886l39.602-44.604c14.369-16.15 38.204-19.494 56.376-8.041l86.449 54.303c36.574-25.021 77.956-43.406 122.366-54.303l16.756-100.205c3.422-21.215 21.841-36.777 43.346-36.777h59.726c21.548 0 39.907 15.563 43.403 36.777l16.704 100.205c37.392 9.142 72.442 23.852 104.556 43.217l84.421-60.287c17.437-12.528 41.448-10.564 56.671 4.695l42.211 42.212c15.196 15.194 17.252 39.173 4.632 56.672l-60.102 84.267c19.58 32.262 34.47 67.625 43.685 105.324l99.643 16.639c21.249 3.503 36.778 21.861 36.778 43.41v59.676c-0.031 21.544-15.56 39.902-36.803 43.399v0zM513.579 259.388c-104.145 0-188.609 84.481-188.609 188.615 0 104.145 84.465 188.61 188.609 188.61 104.129 0 188.607-84.465 188.607-188.61 0.002-104.134-84.478-188.615-188.607-188.615v0z" />
<glyph unicode="&#xe61c;" d="M952.822 703.538c-45.527 77.982-107.26 139.712-185.283 185.243-77.983 45.522-163.155 68.295-255.515 68.295-92.363 0-177.537-22.774-255.519-68.294-78.022-45.491-139.766-107.262-185.288-185.244-45.531-78.024-68.289-163.197-68.289-255.555 0-92.33 22.758-177.503 68.289-255.525 45.522-77.982 107.267-139.756 185.249-185.243 78.022-45.526 163.197-68.288 255.559-68.288 92.359 0 177.531 22.763 255.515 68.288 77.982 45.487 139.757 107.261 185.283 185.243 45.486 78.022 68.249 163.195 68.249 255.525-0.001 92.358-22.762 177.571-68.25 255.555v0zM842.106 418.819l-60.306-60.306c-8.382-8.382-18.354-12.592-29.834-12.592s-21.452 4.21-29.835 12.592l-125.256 125.263v-332.753c0-11.48-4.211-21.411-12.593-29.833-8.423-8.382-18.354-12.593-29.835-12.593h-84.849c-11.487 0-21.462 4.211-29.839 12.593-8.383 8.422-12.594 18.353-12.594 29.833v332.753l-125.263-125.26c-7.984-7.946-17.907-11.919-29.829-11.919-11.958 0-21.895 3.973-29.839 11.919l-60.333 60.305c-7.956 7.984-11.924 17.916-11.924 29.829 0 11.918 3.968 21.894 11.924 29.839l300.287 300.285c7.94 7.955 17.92 11.918 29.839 11.918 11.912 0 21.844-3.963 29.829-11.918l300.251-300.286c7.983-7.944 11.958-17.921 11.958-29.839-0.002-11.914-3.975-21.845-11.959-29.83v0z" />
<glyph unicode="&#xe61d;" d="M952.924 703.596c-45.539 78-107.285 139.744-185.326 185.286-78.002 45.531-163.193 68.31-255.574 68.31-92.384 0-177.576-22.78-255.577-68.31-78.040-45.502-139.798-107.286-185.33-185.286-45.542-78.042-68.305-163.234-68.305-255.613 0-92.351 22.763-177.544 68.305-255.583 45.532-78 107.29-139.788 185.291-185.286 78.041-45.537 163.233-68.305 255.617-68.305 92.38 0 177.572 22.769 255.574 68.305 78 45.498 139.787 107.286 185.326 185.286 45.495 78.039 68.264 163.232 68.264 255.583 0 92.379-22.769 177.612-68.265 255.613v0zM842.182 417.501l-300.321-300.36c-7.987-7.947-17.92-11.921-29.836-11.921-11.921 0-21.904 3.974-29.847 11.921l-300.354 300.36c-7.957 7.947-11.926 17.882-11.926 29.846 0 11.91 3.969 21.851 11.926 29.832l60.348 60.323c8.384 8.384 18.323 12.591 29.846 12.591 11.484 0 21.412-4.207 29.836-12.591l125.29-125.286v332.819c0 11.487 4.212 21.426 12.597 29.806 8.379 8.424 18.357 12.637 29.846 12.637h84.868c11.484 0 21.418-4.212 29.843-12.637 8.383-8.379 12.595-18.318 12.595-29.806v-332.819l125.286 125.286c7.947 7.947 17.881 11.921 29.841 11.921 11.921 0 21.855-3.974 29.842-11.921l60.318-60.323c7.988-7.981 11.962-17.922 11.962-29.832-0.001-11.964-3.973-21.899-11.96-29.846v0z" />
<glyph unicode="&#xe61e;" d="M225.052 951.414h270.202l303.693-503.477-308.728-503.352h-265.167l305.44 503.415z" />
<glyph unicode="&#xe61f;" d="M321.004 749.518l2.59-368.039c0 0-1.107-34.075 28.826-6.813 27.896 25.408 347.096 351.954 347.096 351.954s27.318 23.86-2.313 52.649c-29.632 28.787-152.717 153.75-152.717 153.75s-26.11 39.5-59.318 4.99c-33.21-34.507-148.268-147.226-148.268-147.226s-16.092-13.191-15.896-41.265zM194.994 614.291c0 0 1.098 33.375-24.556 8.869-25.653-24.507-157.259-157.427-157.259-157.427s-21.063-17.738 2.218-39.911c23.281-22.172 157.426-159.468 157.426-159.468s20.529-15.024 20.164 7.791c-0.366 22.818 2.007 340.146 2.007 340.146zM707.652 166.796c11.927-11.929 11.797-31.401-0.291-43.489l-170.306-170.307c-12.091-12.090-31.558-12.218-43.487-0.289l-171.051 171.051c-11.928 11.926-11.798 31.399 0.292 43.489l170.305 170.303c12.090 12.090 31.562 12.221 43.489 0.291l171.049-171.049zM1010.698 465.219c11.926-11.928 11.796-31.401-0.293-43.488l-170.306-170.308c-12.092-12.090-31.558-12.218-43.489-0.29l-171.048 171.052c-11.929 11.926-11.799 31.399 0.29 43.489l170.304 170.305c12.093 12.088 31.563 12.22 43.49 0.29l171.052-171.050z" />
<glyph unicode="&#xe620;" d="M729.285 747.346c-9.132-30.831-28.073-51.848-37.205-82.679-132.709 71.811-295.755 38.606-380.324-41.339-120.632-114.044-110.831-335.021 0-458.869 104.56-116.85 295.774-154.495 525.012-140.554-38.264-16.616-85.433-33.193-140.556-37.206-82.799-6.027-196.406-14.449-276.974 0-39.848 7.146-91.010 43.376-119.884 66.144-167.865 132.35-233.101 424.197-74.409 611.825 100.933 119.34 325.516 182.221 504.34 82.678zM526.722 916.838c-1.84-32.609-8.412-60.484-8.267-95.081-248.806 3.894-421.217-176.218-421.663-421.663-0.358-197.764 115.293-316.215 235.636-409.261-183.138-3.013-286.509 139.053-318.316 305.912-36.184 189.848 44.123 381.295 157.092 487.807 82.29 77.591 202.286 138.542 355.518 132.286zM1018.661 164.459c-23.41-31.934-62.158-88.67-107.481-103.35-72.378-23.441-259.309-5.489-326.582 8.268-171.37 35.052-339.531 130.938-330.718 338.985 6.652 157.072 126.784 274.099 293.511 268.708 114.164-3.691 186.047-59.381 239.768-148.822-26.79-14.546-53.652-29.025-78.545-45.473-95.176 170.786-386.294 111.183-359.652-115.754 4.832-41.173 24.663-73.938 45.473-99.213 113.596-137.978 395.536-131.411 624.226-103.349z" />
<glyph unicode="&#xe621;" d="M4.283 787.656c7.274-57.855 34.374-98.399 78.67-119.196 38.761-18.203 94.99-7.272 147.8-11.918 121.794-10.718 187.114-118.102 185.942-214.548-1.327-109.177-85.133-194.234-185.942-202.633-34.385-2.865-67.842 5.006-107.273 0-70.178-8.906-108.898-56.879-119.195-138.263 87.799 4.418 170.766-5.942 247.926 0 125.395 9.656 202.723 87.278 259.842 164.488 57.558-77.95 135.042-155.379 262.226-164.488 76.165-5.456 158.659 4.056 245.54 0-5.646 62.881-31.961 102.074-73.9 123.963-42.755 22.31-99.255 8.868-154.953 14.301-242.313 23.646-239.659 396.828 4.766 417.183 36.153 3.011 70.608-4.252 104.892 0 72.445 8.981 109.527 59.474 119.194 138.264-87.783-4.638-170.775 6.243-247.925 0-125.192-10.134-202.138-87.567-259.843-164.49-56.746 78.254-140.256 155.752-262.225 164.49-71.555 5.126-152.863-3.755-243.154 0-2.777-0.399-2.588-3.768-2.385-7.153h-0.003z" />
<glyph unicode="&#xe622;" d="M141.308 212.259c-74.194 0-134.474-60.515-134.474-134.262 0-74.15 60.285-133.986 134.472-133.986 74.459 0 134.675 59.84 134.675 133.986-0.001 73.747-60.21 134.262-134.673 134.262zM6.988 609.88v-193.637c126.078 0 244.648-49.305 333.939-138.637 89.178-89.113 138.41-208.223 138.41-334.772h194.488c0 367.842-299.23 667.046-666.837 667.046zM7.217 953.166v-193.735c449.698 0 815.72-366.379 815.72-816.597h194.229c0 556.934-453.123 1010.332-1009.949 1010.332z" />
<glyph unicode="&#xe900;" d="M1016.803 487.017l-269.009 269.004-40.713-40.711-237.49 237.489-269.009-269.007 42.409-42.409-235.794-235.791 269.009-269.006 40.712 40.713 234.099-234.099 269.009 269.006-39.017 39.017 235.794 235.794zM396.084 255.013v382.247l327.964-189.976-327.964-192.271z" />
</font>
</defs>
</svg>
